<?xml version="1.0" standalone="no"?>
<!DOCTYPE svg PUBLIC "-//W3C//DTD SVG 1.1//EN" "http://www.w3.org/Graphics/SVG/1.1/DTD/svg11.dtd">
<svg xmlns="http://www.w3.org/2000/svg">
<metadata>Generated by Fontastic.me</metadata>
<defs>
<font id="athlete2" horiz-adv-x="512">
<font-face font-family="athlete2" units-per-em="512" ascent="480" descent="-32"/>
<missing-glyph horiz-adv-x="512" />

<glyph glyph-name="letter" unicode="&#99;" d="M0 435l0-358 512 0 0 358z m461-307l-410 0 0 256 410 0z m-389 57l51 51 36-37-51-51z m284 14l36 37 51-51-36-37z m-74-20l0 0 153 148-33 37-131-134-30 0-133 134-36-37 148-148z"/>
<glyph glyph-name="athlete2-icon-search" unicode="&#97;" d="M239 34c-132 0-239 107-239 239 0 132 107 239 239 239 132 0 239-107 239-239 0-132-107-239-239-239z m0 410c-94 0-171-77-171-171 0-94 77-171 171-171 94 0 171 77 171 171-1 94-77 171-171 171z m118-337l48 48 107-107-48-48z"/>
<glyph glyph-name="athlete2-icon-star" unicode="&#98;" d="M256 499l84-153 172-33-119-127 21-173-158 74-158-74 21 173-119 127 172 33 84 153"/>
<glyph glyph-name="heart" unicode="&#100;" d="M466 442c-32 28-73 42-116 40-37-4-71-21-97-48-29 27-59 51-94 51-42 2-83-14-113-43-30-31-47-73-46-116 2-34 14-67 35-94 11-14 113-119 172-178 12-15 28-24 46-27 18 3 34 13 46 27 65 65 175 175 186 197 14 22 22 48 24 75 2 43-13 85-43 116z m-27-164l-186-194-172 177c-15 19-25 41-27 65-1 29 10 57 30 78 20 19 47 29 75 27 35 0 94-67 94-67 0 0 65 64 97 64 29 2 57-8 78-26 20-20 31-48 30-76-4-17-11-34-21-48z"/>
<glyph glyph-name="athlete2-icon-compare" unicode="&#101;" d="M57 455l256 0 0 57-313 0 0-398 114 0 0 57-57 0z m256 0l57 0 0-28-57 0z m142-114l0-284-256 0 0 284 256 0 0 57-313 0 0-398 370 0 0 341z"/>
<glyph glyph-name="athlete2-icon-share" unicode="&#102;" d="M414 195c-24 0-48-10-65-27l-110 64c3 11 5 24 5 36 0 12-2 23-5 34l97 56c29-38 82-50 124-27 43 22 62 73 47 118-16 45-63 73-110 64-47-9-81-50-80-99 0-2 0-4 0-9l-102-59c-32 38-84 53-131 39-47-15-80-57-85-106-4-50 22-97 66-119 44-23 97-17 135 16l15 14 107-61c-4-10-5-21-5-31 0-54 44-98 97-98 54 0 98 44 98 98 0 53-44 97-98 97z m0 268c27 0 49-22 49-49 0-26-22-48-49-48-26 0-48 22-48 48 0 27 22 49 48 49z m-292-268c-40 0-73 33-73 73 0 41 33 73 73 73 40 0 73-32 73-73 0-40-33-73-73-73z m292-146c-26 0-48 22-48 49 0 26 22 48 48 48 27 0 49-22 49-48 0-27-22-49-49-49z"/>
<glyph glyph-name="cart" unicode="&#103;" d="M384 416l0 96-256 0 0-96-96 0 0-416 448 0 0 416z m-192 32l128 0 0-32-128 0z m224-384l-320 0 0 288 32 0 0-64 64 0 0 64 128 0 0-64 64 0 0 64 32 0z"/>
<glyph glyph-name="athlete2-icon-rating-block" unicode="&#104;" d="M0 307l512 0 0-102-512 0z"/>
<glyph glyph-name="athlete2-icon-rating-block-small" unicode="&#105;" d="M0 279l512 0 0-46-512 0z"/>
<glyph glyph-name="heart2" unicode="&#107;" d="M396 467c-46 10-102-5-140-55-38 50-94 65-140 55-58-11-116-63-116-152 0-60 42-99 74-128 29-27 155-133 160-137l22-18 22 18c6 4 132 110 161 137 31 29 74 68 74 128-1 89-59 141-117 152z m4-239c-22-21-110-98-144-124-34 26-122 103-144 124-33 30-56 54-56 87 0 62 38 91 70 98 32 6 76-5 99-59l11-26 38 0 12 26c23 53 67 65 98 59 34-7 72-37 72-98 0-33-23-57-56-87z"/>
<glyph glyph-name="athlete2-icon-star2" unicode="&#108;" d="M256 489l79-154 177-9-126-135 28-168-158 79-158-79 32 168-130 135 177 9z"/>
<glyph glyph-name="athlete2-cart-original-bigger" unicode="&#110;" d="M165 293l182 0 0-37-182 0z m292 109l-36 0 0 73-37 37-256 0-37-37 0-73-36 0c-14-10-27-22-37-36l0-366 476 0 0 366z m-292 37l182 0 0-37-182 0z m256-366l-330 0 0 256 330 0z"/>
<glyph glyph-name="arrow" unicode="&#111;" d="M346 288l-58-58 0 186-64 0 0-186-58 58-38-38 122-122 12 0 122 122z"/>
<glyph glyph-name="athlete2-view-list-16" unicode="&#112;" d="M224 224l-160 0 0-160 160 0z m64 224l160 0 0-64-160 0z m0-96l160 0 0-64-160 0z m0-128l160 0 0-64-160 0z m0-96l160 0 0-64-160 0z m-64 320l-160 0 0-160 160 0z"/>
<glyph glyph-name="athlete2-view-grid-16" unicode="&#113;" d="M213 512l-213 0 0-213 213 0z m299 0l-213 0 0-213 213 0z m-299-299l-213 0 0-213 213 0z m299 0l-213 0 0-213 213 0z"/>
<glyph glyph-name="angle" unicode="&#114;" d="M314 311l-49-49-50 49-23-23 73-75 72 75z"/>
<glyph glyph-name="athlete2-icon-search2" unicode="&#106;" d="M477 45l-90 89c39 42 61 93 61 154 0 125-99 224-224 224-125 0-224-99-224-224 0-125 99-224 224-224 42 0 80 13 115 32l93-93z m-413 243c0 90 70 160 160 160 90 0 160-70 160-160 0-90-70-160-160-160-90 0-160 70-160 160z"/>
<glyph glyph-name="athlete2-icon-compare2" unicode="&#109;" d="M80 448l192 0 0 64-256 0 0-384 96 0 0 64-32 0z m192 0l64 0 0-32-64 0z m160-128l0-256-224 0 0 256 224 0 0 64-288 0 0-384 352 0 0 320z"/>
<glyph glyph-name="login" unicode="&#115;" d="M128 192l-64 0 0-32-32 0 0-160 448 0 0 160-32 0 0 32-64 0 0-64 32 0 0-64-320 0 0 64 32 0z m128 320c-88 0-160-72-160-160 0-88 72-160 160-160 88 0 160 72 160 160 0 88-72 160-160 160z m0-256c-53 0-96 43-96 96 0 53 43 96 96 96 53 0 96-43 96-96 0-53-43-96-96-96z"/>
<glyph glyph-name="athlete2-icon-minus" unicode="&#116;" d="M0 299l512 0 0-86-512 0z"/>
<glyph glyph-name="athlete2-icon-plus" unicode="&#117;" d="M512 299l-213 0 0 213-86 0 0-213-213 0 0-86 213 0 0-213 86 0 0 213 213 0z"/>
<glyph glyph-name="returns" unicode="&#118;" d="M401 122l-290 0 0 103 36-36 31 31-67 67 0 14-44 0 0-14-67-67 31-31 36 36 0-147 378 0 0 89-44 0z m111 170l-31 31-36-36 0 147-378 0 0-89 44 0 0 45 290 0 0-103-36 36-31-31 67-67 0-14 44 0 0 14z"/>
<glyph glyph-name="athlete2-icon-shipping" unicode="&#119;" d="M475 265l0 73-109 0 0 73-366 0 0-256 55 0c0-30 24-54 55-54 30 0 55 24 55 54l201 0c0-30 24-54 55-54 30 0 54 24 54 54l37 0 0 110z m-36 37l0-37-73 0 0 37z m-348-165l0 37 37 0 0-37z m238 55l-179 0c-10 11-25 18-40 18-16 0-30-7-41-18l-32 0 0 183 292 0z m73-55l0 37 37 0 0-37z m73 55l-14 0c-11 11-25 18-40 18-16 0-30-7-41-18l-14 0 0 37 109 0z"/>
<glyph glyph-name="athlete2-icon-home" unicode="&#120;" d="M504 310l-154 153 0 9-188 0 0-9-154-153-8 0 0-54 54 0 0-216 404 0 0 216 54 0 0 54z m-288-216l0 108 80 0 0-108z m188 0l-54 0 0 162-188 0 0-162-54 0 0 216-24 0 107 108 130 0 107-108-24 0z"/>
<glyph glyph-name="amazon" unicode="&#121;" d="M289 349c-48-2-169-15-169-117 0-110 138-114 183-43 7-11 36-38 46-47l56 56c0 0-32 25-32 53l0 147c0 25-24 82-112 82-88 0-135-55-135-104l74-7c16 49 54 49 54 49 40 0 35-29 35-69z m0-87c0-80-84-68-84-17 0 47 51 57 84 58z m136-163c-7-10-70-67-174-67-105 0-185 71-209 101-7 8 1 11 5 8 74-44 188-118 373-30 7 4 13-2 5-12z m40-2c-6-16-16-27-21-31-6-5-10-3-7 4 3 6 20 46 13 55-6 8-37 4-48 3-11-1-13-2-14 0-2 6 22 16 38 18 15 1 41 0 46-6 3-5 0-27-7-43z"/>
<glyph glyph-name="athlete2-icon-foursquare" unicode="&#122;" d="M395 509l-273 0c-38 0-50-28-50-46l0-434c0-20 12-28 18-30 6-3 23-5 33 7 129 149 131 152 131 152 3 3 4 3 7 3l83 0c36 0 41 25 45 40l48 243c9 42-2 65-42 65z m-16-74l-12-60c-1-6-9-13-16-13l-107 0c-12 0-20-8-20-20l0-13c0-12 8-21 20-21l91 0c8 0 16-9 14-18-1-9-10-54-11-59-1-5-7-13-17-13l-73 0c-14 0-18-2-27-13 0 0-9-11-89-108-1-9-2-6-2 0l0 339c0 8 7 17 16 17l219 0c9 0 16-8 14-18z"/>
<glyph glyph-name="athlete2-icon-flickr" unicode="&#65;" d="M432 480l-352 0c-26 0-48-22-48-48l0-352c0-27 22-48 48-48l352 0c27 0 48 21 48 48l0 352c0 26-21 48-48 48z m-255-287c-36 0-64 28-64 63 0 36 28 64 64 64 35 0 63-28 63-64 0-35-28-63-63-63z m159 0c-36 0-64 28-64 63 0 36 28 64 64 64 35 0 63-28 63-64 0-35-28-63-63-63z"/>
<glyph glyph-name="google" unicode="&#66;" d="M500 250c0-141-97-242-240-242-137 0-248 111-248 248 0 137 111 248 248 248 67 0 123-25 166-65l-67-65c-88 85-253 21-253-118 0-87 69-157 154-157 98 0 135 71 141 107l-141 0 0 86 236 0c2-13 4-25 4-42z"/>
<glyph glyph-name="athlete2-icon-instagram" unicode="&#68;" d="M256 371c-63 0-115-51-115-115 0-64 52-115 115-115 64 0 115 51 115 115 0 64-51 115-115 115z m0-190c-41 0-75 34-75 75 0 41 34 75 75 75 41 0 75-34 75-75 0-41-34-75-75-75z m147 195c0-15-12-27-27-27-15 0-27 12-27 27 0 14 12 26 27 26 15 0 27-12 27-26z m76-28c-2 36-10 68-37 94-26 27-58 35-93 37-37 2-148 2-185 0-36-2-68-10-94-37-27-26-35-58-36-93-3-37-3-148 0-185 1-36 9-68 36-94 26-26 58-35 94-36 37-3 148-3 185 0 35 1 67 9 93 36 27 26 35 58 37 94 2 37 2 147 0 184z m-48-224c-8-20-23-35-43-43-29-11-99-9-132-9-32 0-103-2-132 9-20 8-35 23-43 43-11 29-9 99-9 132 0 33-2 103 9 132 8 20 23 35 43 43 30 11 100 9 132 9 33 0 103 2 132-9 20-8 35-23 43-43 12-29 9-99 9-132 0-33 3-103-9-132z"/>
<glyph glyph-name="athlete2-icon-kickstarter" unicode="&#69;" d="M211 398c0 56-32 82-73 82-48 0-74-36-74-81l0-283c0-48 25-84 75-84 40 0 72 26 72 84l0 76 112-138c23-27 73-31 104 0 27 27 27 67 7 92l-91 115 75 107c18 25 18 63-10 90-31 29-83 32-114-13l-83-118z"/>
<glyph glyph-name="linkedin-in" unicode="&#70;" d="M132 64l-93 0 0 299 93 0z m-46 340c-30 0-54 24-54 54 0 30 24 54 54 54 29 0 54-24 54-54 0-30-25-54-54-54z m394-340l-93 0 0 146c0 34 0 79-48 79-48 0-56-38-56-77l0-148-93 0 0 299 90 0 0-41 1 0c12 24 43 49 88 49 94 0 111-62 111-143l0-164z"/>
<glyph glyph-name="odnoklassniki" unicode="&#71;" d="M371 178c-27-17-65-24-90-27l21-21 76-76c28-28-17-73-45-46-19 20-47 48-77 77l-76-76c-28-28-74 17-45 45 19 20 47 48 76 77l21 20c-25 3-63 9-91 27-33 21-47 33-34 59 7 15 27 27 54 6 0 0 37-29 95-29 59 0 95 29 95 29 27 21 47 9 55-6 12-26-2-38-35-59z m-245 204c0 72 59 130 130 130 71 0 130-58 130-130 0-71-59-129-130-129-71 0-130 58-130 129z m66 0c0-35 29-63 64-63 35 0 64 28 64 63 0 36-29 64-64 64-35 0-64-28-64-64z"/>
<glyph glyph-name="athlete2-icon-facebook" unicode="&#72;" d="M201 0l0 229-77 0 0 91 77 0 0 72c0 78 47 120 117 120 33 0 62-3 70-4l0-81-48 0c-38 0-45-18-45-44l0-63 85 0-12-91-73 0 0-229"/>
<glyph glyph-name="facebook-messenger" unicode="&#73;" d="M256 480c-208 0-302-246-139-369l0-79 75 42c143-40 286 60 286 199 0 114-99 207-222 207z m23-278l-57 59-110-61 121 129 57-60 111 61z"/>
<glyph glyph-name="stripe" unicode="&#74;" d="M219 357c0 23 19 31 49 31 43 0 98-13 141-36l0 134c-47 19-94 26-141 26-116 0-193-61-193-161 0-158 217-133 217-201 0-26-23-35-55-35-47 0-108 20-156 46l0-129c53-22 107-32 156-32 118 0 200 51 200 154 0 170-218 139-218 203"/>
<glyph glyph-name="athlete2-icon-telegram-plane" unicode="&#75;" d="M479 413l-68-318c-5-23-18-29-37-18l-103 76-50-48c-5-5-10-10-21-10l8 105 191 172c8 8-2 12-13 5l-236-149-102 32c-22 7-22 22 5 32l397 154c19 6 35-5 29-33z"/>
<glyph glyph-name="vimeo-v" unicode="&#76;" d="M480 358c-2-43-33-103-92-179-60-79-112-119-154-119-26 0-48 25-66 73-36 129-51 205-80 205-3 0-15-7-35-21l-21 27c52 45 101 95 132 98 35 4 56-20 64-71 29-182 42-209 94-127 19 30 29 52 30 68 5 46-36 42-63 31 22 72 64 107 126 105 46-1 67-31 65-90z"/>
<glyph glyph-name="vk" unicode="&#77;" d="M484 379c4 11 0 19-15 19l-53 0c-13 0-19-7-22-15 0 0-27-65-65-107-12-12-18-16-24-16-4 0-9 4-9 15l0 104c0 13-3 19-14 19l-83 0c-8 0-13-6-13-12 0-12 19-15 21-51l0-77c0-17-3-20-10-20-18 0-61 65-87 140-5 14-10 20-23 20l-53 0c-14 0-17-7-17-15 0-13 17-82 82-173 44-63 105-96 160-96 33 0 37 7 37 20 0 60-3 65 14 65 8 0 21-4 52-34 36-35 42-51 62-51l52 0c15 0 22 7 18 22-10 31-77 95-80 99-8 10-6 15 0 23 1 0 64 90 70 121z"/>
<glyph glyph-name="athlete2-icon-whatsapp" unicode="&#78;" d="M413 415c-42 42-98 65-157 65-122 0-222-100-222-222 0-39 10-77 30-111l-32-115 118 31c32-18 69-27 106-27l0 0c122 0 224 99 224 222 0 59-25 115-67 157z m-157-342c-33 0-66 9-94 26l-7 4-70-18 19 68-4 7c-19 29-29 63-29 98 0 102 83 184 185 184 49 0 96-19 130-54 35-35 57-81 57-130 0-102-85-185-187-185z m101 138c-5 3-33 17-38 18-5 2-9 3-12-2-4-6-15-18-18-22-3-4-6-4-12-2-32 17-54 30-75 66-6 10 5 10 16 31 2 3 9 7-1 9-1 3-12 31-17 42-4 10-9 9-12 9-3 0-7 0-11 0-3 0-9-1-15-7-5-5-19-19-19-46 0-27 20-54 23-57 2-4 39-60 94-84 36-15 49-17 67-14 11 2 33 13 37 26 5 13 5 25 4 27-2 2-5 4-11 6z"/>
<glyph glyph-name="linkedin" unicode="&#79;" d="M136 333l0-283-94 0 0 283z m6 88c0-14-4-26-14-35-10-9-23-14-39-14l0 0c-16 0-29 5-38 14-10 9-14 21-14 35 0 14 4 26 14 35 10 9 23 14 39 14 16 0 28-5 38-14 9-9 14-21 14-35z m333-208l0-163-94 0 0 152c0 20-3 35-11 47-8 11-20 17-36 17-12 0-22-4-30-10-9-7-15-15-19-25-2-5-3-13-3-23l0-158-94 0c1 76 1 138 1 185 0 47 0 76 0 85l-1 13 94 0 0-41 0 0c4 6 7 12 11 16 4 5 10 10 17 15 6 5 15 10 24 13 10 3 21 4 33 4 33 0 59-11 79-32 20-22 29-54 29-95z"/>
<glyph glyph-name="paper-plane-o" unicode="&#80;" d="M504 509c6-5 9-11 8-18l-73-439c-1-6-4-10-10-13-2-2-5-2-8-2-3 0-5 0-7 1l-151 61-85-93c-3-4-8-6-13-6-3 0-5 0-7 1-4 1-6 4-9 7-2 3-3 6-3 10l0 129-135 56c-7 2-10 7-11 15-1 8 2 13 9 17l476 274c6 4 13 4 19 0z m-98-428l63 378-409-237 96-39 246 183-136-228z"/>
<glyph glyph-name="athlete2-icon-paper-plane" unicode="&#81;" d="M504 509c6-5 9-11 8-18l-73-439c-1-6-4-10-10-13-2-2-5-2-8-2-3 0-5 0-7 1l-130 53-69-84c-3-5-8-7-14-7-2 0-4 0-6 1-4 1-7 4-9 7-2 3-3 6-3 10l0 100 247 303-306-265-113 47c-7 2-10 7-11 15 0 8 3 14 9 17l476 274c2 2 5 3 9 3 4 0 7-1 10-3z"/>
<glyph glyph-name="paypal" unicode="&#82;" d="M471 327c3-16 3-35-2-58-16-84-70-127-161-127l-13 0c-4 0-9-1-12-4-4-4-6-8-7-13l-1-5-16-99 0-4c-1-5-4-9-7-12-4-3-8-5-13-5l-72 0c-4 0-7 1-9 4-3 3-3 7-3 11 2 10 4 26 8 48 3 21 6 37 7 48 2 10 5 26 8 47 3 22 6 38 8 48 1 7 5 11 12 11l37 0c26-1 48 1 68 6 33 7 61 21 82 41 19 18 34 42 44 70 5 14 8 26 10 38 0 1 1 2 1 2 0 1 0 1 1 1 0 0 1-1 2-1 15-12 24-27 28-47z m-50 81c0-20-4-43-13-67-15-45-44-75-86-90-22-8-46-12-72-12 0-1-9-1-26-1l-25 1c-19 0-31-10-34-28-1-1-9-52-24-151-1-2-2-3-4-3l-84 0c-4 0-8 1-11 5-2 3-3 6-3 11l66 420c1 5 4 10 8 14 5 3 9 5 15 5l171 0c6 0 16-1 28-4 12-2 22-5 32-9 20-8 36-19 46-35 11-16 16-34 16-56z"/>
<glyph glyph-name="skype" unicode="&#83;" d="M372 208c0 10-2 19-6 26-4 8-8 15-14 20-5 5-12 10-21 14-8 4-16 7-23 10-7 2-16 4-25 6l-30 7c-6 1-10 2-12 3-3 1-6 2-10 3-4 2-7 3-9 5-2 2-3 4-5 6-1 2-2 5-2 9 0 14 14 22 41 22 8 0 16-2 22-4 7-2 12-5 16-8 4-3 7-6 11-10 3-3 7-6 11-8 4-2 9-3 14-3 9 0 16 3 21 9 6 6 8 13 8 22 0 10-5 20-16 28-10 9-24 15-40 20-17 4-34 6-52 6-13 0-26-1-38-4-12-3-23-8-34-14-11-6-19-14-25-25-7-10-10-22-10-36 0-12 2-22 5-31 4-8 9-16 16-21 7-6 15-11 23-14 8-4 18-7 30-9l41-11c18-4 28-7 32-10 7-4 10-10 10-17 0-8-4-14-12-19-7-4-17-7-30-7-10 0-18 2-26 5-8 3-14 6-19 11-4 4-9 8-13 13-4 4-8 8-13 11-4 3-10 4-15 4-10 0-17-3-22-8-5-6-7-13-7-22 0-17 12-32 35-45 23-12 51-19 83-19 14 0 27 2 40 6 13 3 24 8 35 15 11 7 19 16 25 27 7 11 10 23 10 37z m103-62c0-30-10-56-32-77-21-22-47-32-77-32-25 0-47 7-67 22-15-3-29-4-43-4-27 0-53 5-78 16-25 10-46 25-64 43-18 18-33 39-43 64-11 25-16 51-16 78 0 14 1 28 4 43-15 20-22 42-22 67 0 30 10 56 32 77 21 22 47 32 77 32 25 0 47-7 67-22 15 3 29 4 43 4 27 0 53-5 78-16 25-10 46-25 64-43 18-18 33-39 43-64 11-25 16-51 16-78 0-14-1-28-4-43 15-20 22-42 22-67z"/>
<glyph glyph-name="athlete2-icon-slack" unicode="&#84;" d="M452 290c12 0 22-4 30-11 8-8 12-18 12-29 0-19-9-31-27-37l-49-17 16-48c1-4 2-8 2-13 0-12-4-21-12-30-8-8-18-12-29-12-9 0-17 3-24 8-8 5-13 12-16 20l-15 48-89-31 16-47c1-4 2-9 2-13 0-11-4-21-12-29-8-8-18-12-29-12-9 0-17 2-24 7-8 5-13 12-15 21l-16 46-44-15c-5-1-10-2-14-2-12 0-21 4-29 11-8 8-12 17-12 29 0 9 3 17 8 24 5 8 12 13 21 15l44 16-30 89-44-15c-5-2-10-3-14-3-12 0-21 4-29 12-8 8-12 17-12 29 0 9 3 17 8 24 5 7 12 12 21 15l44 15-15 46c-1 4-2 9-2 13 0 11 4 21 12 29 8 8 18 12 29 12 9 0 17-2 24-7 8-5 13-12 16-21l15-46 89 30-16 46c-1 5-2 9-2 14 0 11 4 21 12 29 8 8 18 12 29 12 9 0 17-3 24-8 8-5 13-12 16-20l15-46 46 15c4 2 8 2 12 2 12 0 22-4 30-11 8-8 12-17 12-28 0-9-3-17-9-24-5-7-12-11-21-14l-45-16 30-90 47 16c5 2 9 2 13 2z m-227-75l89 30-30 90-89-30z"/>
<glyph glyph-name="twitter" unicode="&#85;" d="M481 395c-13-18-28-34-46-47 0-3 0-7 0-12 0-25-3-50-11-74-7-25-18-49-33-71-14-23-32-43-52-61-21-17-45-31-74-41-29-11-60-16-92-16-52 0-99 14-142 42 7-1 14-2 22-2 43 0 81 14 115 40-20 0-38 6-54 18-16 12-27 27-33 46 7-1 13-2 18-2 8 0 16 1 24 4-21 4-39 15-53 31-14 17-21 37-21 59l0 1c13-7 27-11 42-11-13 8-23 19-30 32-8 14-11 29-11 44 0 17 4 33 12 47 23-28 51-51 84-68 33-17 69-27 107-29-2 8-3 15-3 22 0 25 9 47 27 65 18 18 40 27 66 27 26 0 49-10 67-29 21 4 40 11 59 22-7-22-21-39-41-51 18 2 35 7 53 14z"/>
<glyph glyph-name="tumblr" unicode="&#86;" d="M379 132l23-67c-4-7-15-13-31-19-17-6-34-9-51-9-20-1-38 2-54 7-17 5-30 12-41 21-11 9-20 19-27 30-8 12-13 23-16 35-3 11-5 22-5 33l0 156-48 0 0 61c14 5 26 12 37 20 11 8 20 17 26 26 6 9 12 18 17 29 4 11 7 20 9 28 2 9 4 17 5 26 0 1 0 1 1 2 1 1 1 1 2 1l70 0 0-121 95 0 0-72-96 0 0-148c0-6 1-11 2-16 2-5 4-10 7-15 3-5 7-9 14-12 6-3 14-4 23-4 15 0 28 3 38 8z"/>
<glyph glyph-name="athlete2-icon-pinterest-p" unicode="&#87;" d="M268 505c-103 0-204-68-204-179 0-70 40-110 64-110 10 0 15 28 15 35 0 10-23 29-23 68 0 81 61 138 140 138 68 0 118-39 118-110 0-53-21-153-90-153-25 0-46 18-46 44 0 38 26 74 26 113 0 66-94 54-94-26 0-16 3-35 10-50-14-60-42-148-42-209 0-19 3-38 5-57 3-4 1-3 6-1 51 69 49 82 72 173 12-24 44-36 69-36 106 0 154 103 154 196 0 100-86 164-180 164z"/>
<glyph glyph-name="return-big" unicode="&#88;" d="M477 326l-47-47 0 151-358 0 0-113 30 0 0 82 297 0 0-119-46 46-21-22 67-68 31 0 69 68z m-78-213l-297 0 0 119 45-46 23 22-68 68-30 0-70-68 23-22 47 47 0-151 358 0 0 113-31 0z"/>
<glyph glyph-name="shipping-big" unicode="&#89;" d="M418 146c6 0 12-3 17-8l4-6 0-7c0-11-10-21-21-21-12 0-21 10-21 21l0 7 4 6c4 5 11 8 17 8m-52 293l-366 0 0-314 63 0c0-29 23-52 52-52 29 0 52 23 52 52l199 0c0-29 24-52 52-52 28 0 52 24 52 52l42 0 0 136-42 0 0 84-104 0z m-335-282l0 251 303 0 0-251-177 0c-10 12-24 21-42 21-18 0-32-9-42-21z m335 104l0 52 73 0 0-52z m0-104l0 73 115 0 0-73-21 0c-10 12-24 21-42 21-18 0-32-9-42-21z m-251-53c-12 0-21 10-21 21 0 12 9 21 21 21 11 0 21-9 21-21 0-11-10-21-21-21z"/>
<glyph glyph-name="athlete2-icon-phone-athlete" unicode="&#90;" d="M381 512l-250 0-25-25 0-462 25-25 250 0 25 25 0 462z m-235-37l220 0 2-3 0-72-224 0 0 72z m222-435l-2-3-220 0-2 3 0 72 224 0z m-224 97l0 238 224 0 0-238z m62-50l100 0 0-25-100 0z m38 363l24 0 0-25-24 0z"/>
<glyph glyph-name="phone-small" unicode="&#48;" d="M389 492l0 20-266 0 0-20-21 0 0-472 21 0 0-20 266 0 0 20 21 0 0 472z m-20-451l-226 0 0 61 226 0z m0 102l-226 0 0 226 226 0z m0 267l-226 0 0 61 226 0z m-164-328l102 0 0-21-102 0z m41 369l20 0 0-21-20 0z"/>
<glyph glyph-name="return-small" unicode="&#49;" d="M393 129l-276 0 0 108 44-45 30 30-74 74 0 2-43 0-74-74 30-30 44 45 0-153 362 0 0 85-43 0z m89 191l-46-47 0 153-362 0 0-85 43 0 0 42 276 0 0-106-42 43-30-30 72-72 0-4 43 0 76 74z"/>
<glyph glyph-name="athlete2-icon-tripadvisor" unicode="&#50;" d="M113 227c0-7-3-14-8-19-5-5-11-8-19-8-7 0-13 3-19 8-5 5-8 12-8 19 0 7 3 14 8 19 6 5 12 8 19 8 8 0 14-3 19-8 5-5 8-12 8-19z m330 0c0-7-3-13-8-19-6-5-12-7-19-7-8 0-14 2-19 7-6 6-8 12-8 19 0 8 2 14 8 19 5 5 11 8 19 8 7 0 13-3 19-8 5-5 8-11 8-19z m-298 0c0 15-5 28-16 39-10 11-23 16-39 16-15 0-28-5-39-16-10-11-16-24-16-39 0-15 6-28 16-39 11-11 24-16 39-16 16 0 29 5 39 16 11 11 16 24 16 39z m330 0c0 16-6 29-16 39-11 11-24 17-39 17-15 0-28-6-39-17-11-10-16-23-16-39 0-15 5-28 16-39 10-10 23-16 39-16 15 0 28 6 39 16 10 11 16 24 16 39z m-305 0c0-22-8-41-24-56-15-16-34-24-56-24-22 0-41 8-56 24-16 15-23 34-23 56 0 22 7 41 23 56 16 16 34 24 56 24 22 0 41-8 56-24 16-15 24-34 24-56z m329 0c0-21-7-40-23-56-15-15-34-23-56-23-22 0-41 8-56 23-16 16-24 35-24 56 0 22 8 41 24 57 15 15 34 23 56 23 22 0 41-8 56-23 16-16 23-35 23-57z m-275 0c0 36-13 67-39 93-26 26-57 39-93 39-24 0-46-6-66-18-20-12-36-28-48-48-12-21-18-43-18-66 0-24 6-46 18-67 12-20 28-36 48-48 20-12 42-17 66-17 36 0 67 12 93 38 26 26 39 57 39 94z m191 163c-49 21-101 32-159 32-61 0-115-10-164-31 23 0 44-5 64-13 20-9 38-21 52-35 15-15 26-33 35-53 9-20 13-41 13-63 0 21 4 42 12 62 9 20 20 37 34 52 14 14 31 26 51 35 19 9 40 14 62 14z m137-163c0 36-13 67-39 93-26 26-57 39-93 39-36 0-67-13-93-39-26-26-39-57-39-93 0-37 13-68 39-94 26-26 57-38 93-38 36 0 67 12 93 38 26 26 39 57 39 94z m-76 161l109 0c-8-9-15-20-21-32-6-13-10-23-12-33 21-29 32-61 32-96 0-30-8-58-22-83-15-25-35-45-60-59-25-15-52-22-82-22-25 0-49 5-71 16-22 11-41 25-56 44-9-11-21-28-37-51-2 4-7 12-15 24-8 11-15 20-22 27-15-18-34-33-56-44-22-11-46-16-71-16-30 0-57 7-82 22-25 14-45 34-60 59-14 25-22 53-22 83 0 35 11 67 32 96-2 10-6 20-12 33-6 12-13 23-21 32l104 0c29 19 62 34 102 45 39 11 80 16 123 16 43 0 83-5 120-16 38-11 71-25 100-45z"/>
<glyph glyph-name="youtube-square" unicode="&#67;" d="M299 140l0 45c0 9-3 14-8 14-3 0-7-2-10-5l0-64c3-3 7-4 10-4 5 0 8 4 8 14z m53 35l19 0 0 9c0 10-4 15-10 15-6 0-9-5-9-15z m-163 76l0-20-23 0 0-121-21 0 0 121-23 0 0 20z m57-36l0-105-19 0 0 11c-8-8-15-13-22-13-6 0-10 3-12 8-1 3-2 8-2 16l0 83 19 0 0-78c0-4 0-7 1-7 0-3 1-4 4-4 4 0 8 3 12 9l0 80z m72-32l0-42c0-10-1-17-2-21-2-8-7-12-15-12-7 0-13 4-20 12l0-10-19 0 0 141 19 0 0-46c7 7 13 11 20 11 8 0 13-4 15-12 1-4 2-11 2-21z m72-37l0-3c0-5 0-9-1-12 0-4-2-8-4-11-5-8-13-12-23-12-10 0-18 4-23 11-4 5-6 13-6 25l0 37c0 11 2 19 6 24 5 7 13 11 22 11 10 0 18-4 23-11 4-5 6-13 6-24l0-22-38 0 0-19c0-9 3-14 9-14 5 0 8 2 9 7 0 0 0 1 0 2 0 1 0 3 0 5l0 6z m-129 235l0-44c0-10-3-15-9-15-6 0-9 5-9 15l0 44c0 10 3 15 9 15 6 0 9-5 9-15z m152-203c0 33-2 58-5 74-2 8-6 15-13 21-6 6-13 9-21 10-26 3-65 4-118 4-52 0-92-1-117-4-9-1-16-4-22-10-6-6-11-13-12-21-4-17-6-41-6-74 0-34 2-59 6-75 1-8 6-15 12-20 6-6 13-9 21-10 26-3 66-5 118-5 52 0 92 2 118 5 8 1 15 4 21 10 6 5 11 12 12 20 4 16 6 41 6 75z m-216 186l26 84-21 0-15-55-15 55-22 0 7-19 6-20c7-20 11-35 13-45l0-58 21 0z m83-23l0 37c0 11-2 19-6 25-6 7-13 10-22 10-10 0-17-3-23-10-4-6-6-14-6-25l0-37c0-11 2-20 6-25 6-8 13-11 23-11 9 0 16 3 22 11 4 5 6 13 6 25z m52-35l19 0 0 106-19 0 0-81c-4-6-8-9-12-9-3 0-5 2-5 5 0 0 0 3 0 7l0 78-19 0 0-84c0-7 0-12 1-15 3-6 7-8 13-8 7 0 14 4 22 13z m143 87l0-274c0-23-8-42-24-58-16-16-35-24-58-24l-274 0c-23 0-42 8-58 24-16 16-24 35-24 58l0 274c0 23 8 42 24 58 16 16 35 24 58 24l274 0c23 0 42-8 58-24 16-16 24-35 24-58z"/>
<glyph glyph-name="youtube-play" unicode="&#51;" d="M366 256c0 7-3 12-9 15l-146 92c-6 4-12 4-19 0-6-3-9-8-9-16l0-182c0-8 3-13 9-16 3-2 6-3 9-3 4 0 7 1 10 3l146 92c6 3 9 8 9 15z m146 0c0-18 0-33 0-43 0-10-1-23-3-39-1-16-3-30-6-42-3-14-10-26-20-35-10-10-22-15-35-17-43-4-106-7-192-7-86 0-149 3-192 7-13 2-25 7-35 17-10 9-17 21-20 35-3 12-5 26-6 42-2 16-3 29-3 39 0 10 0 25 0 43 0 18 0 33 0 43 0 10 1 23 3 39 1 16 3 30 6 42 3 14 10 26 20 35 10 10 22 15 35 17 43 4 106 7 192 7 86 0 149-3 192-7 13-2 25-7 35-17 10-9 17-21 20-35 3-12 5-26 6-42 2-16 3-29 3-39 0-10 0-25 0-43z"/>
<glyph glyph-name="athlete2-icon-youtube" unicode="&#52;" d="M314 157l0-61c0-12-4-19-11-19-5 0-9 2-13 6l0 86c4 5 8 7 13 7 7 0 11-7 11-19z m97-1l0-13-26 0 0 13c0 13 4 20 13 20 8 0 13-7 13-20z m-276 63l30 0 0 26-89 0 0-26 30 0 0-163 29 0z m82-163l25 0 0 141-25 0 0-108c-6-8-11-12-16-12-4 0-6 2-6 6-1 1-1 4-1 10l0 104-25 0 0-112c0-9 1-16 2-20 2-7 8-11 17-11 9 0 19 6 29 17z m122 42l0 57c0 13 0 23-2 28-3 11-10 16-20 16-10 0-19-5-27-16l0 62-25 0 0-189 25 0 0 14c9-11 17-16 27-16 10 0 17 5 20 16 2 5 2 14 2 28z m97 3l0 4-26 0c0-10 0-16-1-18-1-6-5-10-11-10-9 0-13 7-13 20l0 25 51 0 0 29c0 15-3 26-8 33-7 10-17 15-30 15-13 0-23-5-31-15-5-7-8-18-8-33l0-49c0-15 3-26 9-33 7-10 17-15 31-15 13 0 24 5 30 15 4 5 6 10 6 16 1 1 1 7 1 16z m-174 261l0 60c0 13-4 20-12 20-8 0-12-7-12-20l0-60c0-13 4-20 12-20 8 0 12 7 12 20z m206-215c0-44-3-77-8-100-2-11-8-20-16-28-9-7-18-12-29-13-35-4-88-6-159-6-71 0-124 2-159 6-11 1-20 6-29 13-8 8-14 17-16 28-5 22-8 55-8 100 0 45 3 78 8 100 2 12 8 21 16 29 9 7 18 12 30 13 35 4 87 6 158 6 71 0 124-2 159-6 11-1 20-6 29-13 8-8 14-17 16-29 5-21 8-54 8-100z m-285 365l29 0-35-114 0-77-28 0 0 77c-3 14-9 34-18 61-7 19-13 37-18 53l30 0 20-75z m105-95l0-50c0-16-2-27-8-34-7-10-17-14-30-14-13 0-23 4-30 14-5 7-8 19-8 34l0 50c0 15 3 26 8 33 7 10 17 15 30 15 13 0 23-5 30-15 6-7 8-18 8-33z m96 46l0-142-26 0 0 15c-10-12-20-17-29-17-9 0-15 3-17 10-2 5-3 12-3 22l0 112 26 0 0-105c0-6 1-9 1-10 0-4 2-6 6-6 5 0 10 4 16 12l0 109z"/>
<glyph glyph-name="discord" unicode="&#53;" d="M427 384c0 0-49 38-107 43l-5-11c52-13 76-31 101-53-43 22-86 42-160 42-74 0-117-20-160-42 25 22 54 43 101 53l-5 11c-61-6-107-43-107-43 0 0-54-79-64-235 55-63 139-64 139-64l17 24c-29 10-63 28-92 62 35-26 87-54 171-54 84 0 136 28 171 54-29-34-63-52-92-62l17-24c0 0 84 1 139 64-10 156-64 235-64 235z m-240-192c-21 0-38 19-38 43 0 23 17 42 38 42 20 0 37-19 37-42 0-24-17-43-37-43z m138 0c-20 0-37 19-37 43 0 23 17 42 37 42 21 0 38-19 38-42 0-24-17-43-38-43z"/>
<glyph glyph-name="reddit-alien-brands" unicode="&#54;" d="M440 308c-15 0-28-6-38-15-35 24-83 40-137 42l28 125 88-20c0-22 18-39 39-39 22 0 40 18 40 39 0 22-17 40-40 40-15 0-28-9-35-22l-97 22c-5 1-10-3-11-7l-31-138c-53-2-100-18-136-43-10 10-23 16-38 16-56 0-74-74-23-100-2-8-3-16-3-24 0-84 95-152 210-152 117 0 211 68 211 152 0 8-1 17-3 25 50 25 32 99-24 99z m-311-105c0 22 18 40 40 40 22 0 39-18 39-40 0-22-17-39-39-39-22 0-40 17-40 39z m215-93c-37-37-139-37-176 0-4 3-4 9 0 13 4 4 10 4 13 0 28-28 120-29 149 0 4 4 10 4 14 0 4-4 4-10 0-13z m-1 54c-22 0-39 17-39 39 0 22 17 40 39 40 22 0 40-18 40-40 0-22-18-39-40-39z"/>
<glyph glyph-name="athlete2-icon-snapchat" unicode="&#56;" d="M256 504c-137 0-248-111-248-248 0-137 111-248 248-248 137 0 248 111 248 248 0 137-111 248-248 248z m170-339c-4-8-19-14-45-18-2-2-3-10-5-16-1-4-3-6-8-6l0 0c-6 0-13 3-26 3-17 0-23-4-37-14-15-10-28-19-49-18-21-2-39 11-49 18-14 10-20 14-37 14-13 0-21-3-26-3-5 0-7 3-8 6-2 6-3 14-5 16-13 2-44 7-45 21 0 4 2 7 6 8 46 7 67 55 68 57 0 0 1 0 2 0 2 5 3 9 1 13-3 7-17 10-24 13-15 6-18 13-17 18 2 9 15 14 22 10 6-2 12-4 16-4 3 0 6 1 7 2-2 23-5 58 3 77 21 50 69 54 83 54 0 0 6 0 6 0 35 0 68-18 85-54 8-19 5-53 4-77 1-6 2-2 5-2 5 0 9 2 15 4 4 2 10 2 14 0 6-2 10-6 10-11 1-7-6-13-17-17-2-6-3-1-5-2-7-2-17-5-19-11-2-4-1-8 1-13 2-1 3-9 2-21 50-68 58-4 1-8 6-4 11-4 11-4z"/>
<glyph glyph-name="amazon-pay" unicode="&#55;" d="M0 198c2 4 4 4 8 2 9-5 17-9 26-14 34-17 70-30 107-39 17-4 35-7 53-10 26-3 53-5 80-4 14 0 29 2 43 3 47 6 93 18 137 36 2 1 5 2 8 1 5-1 7-7 3-11-2-3-5-5-8-7-26-17-54-30-83-40-21-6-42-11-63-15-15-2-30-3-45-4-1 0-1-1-2-2l-18 0c0 0-1 0-2 0-3 0-6 0-9 0-14 1-28 3-42 5-23 4-45 9-67 17-46 17-86 41-122 73-2 2-3 4-4 5z m132 218c-1-2-2-3-3-5-12-1-23-6-32-13-2-1-4-3-6-4 0 0 0 1 0 1-1 2-1 5-1 7-1 4-3 5-7 5l-9 0c-6 0-7-1-7-6l0-176c0-1 0-2 0-2 0-3 1-4 4-5 6 0 12 0 18 0 2 0 3 2 4 5 0 0 0 1 0 2l0 65c1-7 1-1 1-1 15-13 33-17 52-13 17 3 29 14 36 29 6 12 9 24 9 37 4 14-1 28-7 42-7 16-19 27-37 31-2 0-5 0-8 1-2 0-4 0-7 0z m-39-35c0 1 3 2 1 3 12 8 24 12 38 11 13-1 23-7 28-22 4-9 4-18 4-28 0-8 0-17-3-25-6-18-19-25-36-24-11 0-22 5-31 12-1 0-1 1-1 2 0 12 0 24 0 36 0 11 0 23 0 35z m172 35c-1 0-2 0-2-3-9-5-17-2-25-4-5-1-10-3-15-5-3-1-4-3-4-6 1-3 0-6 0-8 1-4 2-5 6-4 6 1 13 3 19 4 11 2 21 3 31 1 6 0 11-2 15-7 3-4 4-8 4-13 2-7 2-14 2-21 0-1 0-8 0-1 0 0 0 0-1 0-9 2-17 3-27 4-9 0-18-1-27-3-11-4-20-11-25-21-4-8-5-17-3-26 1-12 7-21 18-27 10-5 20-6 31-4 13 2 24 7 34 15 3 1 8 1 1 1 5-3 1-6 2-9 0-3 2-4 4-4 5-1 10-1 14 0 2 0 4 1 4 4 1 0 1 1 1 2l0 89c0 3 0 7-1 11-1 10-6 19-16 25-5 3-12 5-18 6-3 0-6 1-9 1-3-1-7-1-10-1z m29-107c0-1 0-2-1-2-9-7-20-12-31-13-5-5-10-3-14 2-6 2-9 5-11 11-1 5-1 11 0 16 2 7 7 11 14 13 7 2 14 3 21 2 7-6 14-2 21-3 1-2 1-1 1-2 0-4 0-8 0-12 0-4 0-8 0-12z m218-108c-1 4-4 5-8 7-5 2-11 2-17 3-11 1-22 0-33-2-12-2-23-6-34-13-1-1-2-2-3-3 0-1 0-2 0-3 0-1 2-2 3-2 6 0 1 0 2 0 6 1 13 2 19 3 10 0 19 1 29 0 4-2 8-1 12-2 4-1 6-4 6-9 4-6-1-13-2-19-4-13-9-26-14-38 0-1 0-2-1-2 0-3 1-4 4-4 1 0 3 1 4 2 4 4 7 7 11 11 10 14 17 30 20 47 7 3 1 6 2 9z m-111 103c-10 30-21 60-32 90-2 4-4 9-5 14-1 2-3 4-6 4-6 0-12 0-19 0-2 0-3-2-3-4 5-2 1-3 2-5 16-41 33-81 50-122 1-3 1-6 1-10-3-6-5-12-8-18-2-6-6-10-12-12-5-1-9-1-13 0-2 0-4 0-7 0-2 1-4-1-4-4 0-2 0-5 0-8 1-5 2-7 6-7 5-1 10-2 14-2 15-3 26 5 34 18 3 5 5 10 7 15 20 50 40 101 59 151 6 1 2 3 2 4 3 3-1 4-3 4-6 0-11 0-17 0-3 0-5-1-6-4-1-2-1-3-2-4-10-28-19-56-29-84-2-6-4-12-6-18-1 1-1 1-1 2z"/>
<glyph glyph-name="battery-0" unicode="&#57;" d="M444 341c-9 25-32 43-60 43l-320 0c-35 0-64-29-64-64l0-149c0-36 29-64 64-64l320 0c28 0 51 17 60 42l46 0 0 192z m-39-170c0-12-9-22-21-22l-320 0c-12 0-21 10-21 22l0 149c0 12 9 21 21 21l320 0c12 0 21-9 21-21l0-149z m43 21l-22 0 0 107 22 0z"/>
<glyph glyph-name="athlete2-icon-battery-1" unicode="&#33;" d="M444 341c-9 25-32 43-60 43l-320 0c-35 0-64-29-64-64l0-149c0-36 29-64 64-64l320 0c28 0 51 17 60 42l46 0 0 192z m-39-170c0-12-9-22-21-22l-320 0c-12 0-21 10-21 22l0 149c0 12 9 21 21 21l320 0c12 0 21-9 21-21l0-149z m43 21l-22 0 0 107 22 0z m-384 85l0-64c0-23 15-42 32-42l32 0 0 149-32 0c-17 0-32-19-32-43z"/>
<glyph glyph-name="battery-2" unicode="&#34;" d="M444 341c-9 25-32 43-60 43l-320 0c-35 0-64-29-64-64l0-149c0-36 29-64 64-64l320 0c28 0 51 17 60 42l46 0 0 192z m-39-170c0-12-9-22-21-22l-320 0c-12 0-21 10-21 22l0 149c0 12 9 21 21 21l320 0c12 0 21-9 21-21l0-149z m43 21l-22 0 0 107 22 0z m-299 128l64 0 0-149-64 0z m-85-43l0-64c0-23 15-42 32-42l32 0 0 149-32 0c-17 0-32-19-32-43z"/>
<glyph glyph-name="battery-3" unicode="&#35;" d="M444 341c-9 25-32 43-60 43l-320 0c-35 0-64-29-64-64l0-149c0-36 29-64 64-64l320 0c28 0 51 17 60 42l46 0 0 192z m-39-170c0-12-9-22-21-22l-320 0c-12 0-21 10-21 22l0 149c0 12 9 21 21 21l320 0c12 0 21-9 21-21l0-149z m43 21l-22 0 0 107 22 0z m-299 128l64 0 0-149-64 0z m86 0l64 0 0-149-64 0z m-171-43l0-64c0-23 15-42 32-42l32 0 0 149-32 0c-17 0-32-19-32-43z"/>
<glyph glyph-name="athlete2-icon-battery-4" unicode="&#36;" d="M444 341c-9 25-32 43-60 43l-320 0c-35 0-64-29-64-64l0-149c0-36 29-64 64-64l320 0c28 0 51 17 60 42l46 0 0 192z m-39-170c0-12-9-22-21-22l-320 0c-12 0-21 10-21 22l0 149c0 12 9 21 21 21l320 0c12 0 21-9 21-21l0-149z m43 21l-22 0 0 107 22 0z m-299 128l64 0 0-149-64 0z m86 0l64 0 0-149-64 0z m117 0l-32 0 0-149 32 0c17 0 32 19 32 42l0 64c0 24-15 43-32 43z m-288-43l0-64c0-23 15-42 32-42l32 0 0 149-32 0c-17 0-32-19-32-43z"/>
<glyph glyph-name="battery-power" unicode="&#37;" d="M444 341c-9 25-32 43-60 43l-320 0c-35 0-64-29-64-64l0-149c0-36 29-64 64-64l320 0c27 0 51 17 60 42l46 0 0 192z m-39-170c0-12-10-22-21-22l-320 0c-12 0-21 10-21 22l0 149c0 12 9 21 21 21l320 0c11 0 21-9 21-21l0-149z m43 21l-22 0 0 107 22 0z m-233 0l22 43 106 0-128 64-21-43-107 0z"/>
<glyph glyph-name="barbell" unicode="&#38;" d="M464 320c-11 0-16-19-16-43l0-42c0-24 5-43 16-43 12 0 17 19 17 43l31 0 0 42-31 0c0 24-5 43-17 43z m-80 64c-21 0-21-19-21-43l0-64-214 0 0 64c0 24 0 43-21 43-23 0-43-19-43-43l0-170c0-24 20-43 43-43 21 0 21 19 21 43l0 64 214 0 0-64c0-24 0-43 21-43 23 0 43 19 43 43l0 170c0 24-20 43-43 43z m-336-64c11 0 16-19 16-43l0-42c0-24-5-43-16-43-12 0-17 19-17 43l-31 0 0 42 31 0c0 24 5 43 17 43z"/>
<glyph glyph-name="athlete2-icon-bubble-3" unicode="&#39;" d="M139 320c17 0 32-14 32-32 0-18-15-32-32-32-18 0-32 14-32 32 0 18 14 32 32 32z m106 0c18 0 32-14 32-32 0-18-14-32-32-32-17 0-32 14-32 32 0 18 15 32 32 32z m107 0c18 0 32-14 32-32 0-18-14-32-32-32-18 0-32 14-32 32 0 18 14 32 32 32z m75 171l-363 0c-35 0-64-29-64-64l0-256c0-36 43-43 64-43l0-128 192 128 171 0c35 0 64 29 64 64l0 235c0 35-29 64-64 64z m21-299c0-12-10-21-21-21l-192 0-128-107 0 107-43 0c-12 0-21 9-21 21l0 235c0 11 9 21 21 21l363 0c11 0 21-10 21-21z"/>
<glyph glyph-name="bubble" unicode="&#40;" d="M427 491l-363 0c-35 0-64-29-64-64l0-256c0-36 43-43 64-43l0-128 192 128 171 0c35 0 64 29 64 64l0 235c0 35-29 64-64 64z m21-299c0-12-10-21-21-21l-192 0-128-107 0 107-43 0c-12 0-21 9-21 21l0 235c0 11 9 21 21 21l363 0c11 0 21-10 21-21z"/>
<glyph glyph-name="bolt" unicode="&#41;" d="M354 265l-92 20 43 198-147-220 74-16-47-218z"/>
<glyph glyph-name="athlete2-icon-credit-cards" unicode="&#42;" d="M469 363l-42 0 0 12c0 24-19 52-43 52l-341 0c-24 0-43-28-43-52l0-192c0-23 19-34 43-34l21 0 0-51c0-24 19-34 43-34l362 0c24 0 43 10 43 34l0 213c0 24-19 52-43 52z m-405-171l-21 0 0 85 21 0z m6 149l-27 0 0 43 341 0 0-21-277 0c-16 0-30-22-37-22z m37-234l0 213 362 0 0-213z m234 64l107 0 0 85-107 0z m22 64l64 0 0-43-64 0z m-192-107l85 0 0 21-85 0z m-43 128l149 0 0 43-149 0z m149-128l22 0 0 21-22 0z m-149 0l21 0 0 21-21 0z"/>
<glyph glyph-name="cube" unicode="&#43;" d="M258 501l-237-116 0-235 235-139 235 139 0 235z m-23-428l-171 101 0 142 171-84z m-161 287l185 94 185-94-185-91z m374-186l-192-114 0 165 192 91z"/>
<glyph glyph-name="stopwatch" unicode="&#44;" d="M277 426l0 22 11 0c6 0 11 5 11 11l0 42c0 6-5 11-11 11l-64 0c-6 0-11-5-11-11l0-42c0-6 5-11 11-11l11 0 0-22c-20-2-38-7-55-14l-23 22-39 39-75-75 49-49c-31-37-49-84-49-136 0-117 95-213 213-213 118 0 213 96 213 213 0 111-84 202-192 213z m-42 65l42 0 0-22-42 0z m-162-93l45 45 25-25-45-45z m183-355c-94 0-171 76-171 170 0 94 77 171 171 171 94 0 171-77 171-171 0-94-77-170-171-170z m-17 267c-8 9-22 9-30 0-8-8-8-22 0-30l42-42-56-78c-6-10-2-23 8-29 3-2 7-3 10-3 8 0 15 4 19 11l64 92c5 9 3 19-4 26z"/>
<glyph glyph-name="athlete2-icon-speaker" unicode="&#45;" d="M165 149l262-85 0 384-262-85-80 0c-35 0-64-29-64-64l0-86c0-35 29-64 64-64l9 0c0 0 0-1 0-1 0-14 2-33 8-52 4-9 8-19 14-27 3-4 6-9 9-12 3-4 7-7 10-10 7-6 13-10 17-12 5-3 8-4 8-4l0-1c4-2 9-3 14-4 19-2 37 12 39 32 2 19-12 37-31 39 0 0-1 0-4 1-2 0-5 0-9 1-2 1-4 2-6 2-2 1-4 3-6 4-5 3-10 7-14 12-8 10-15 22-19 32z m198 241l21 7 0-282-21 6z m-171-57l149 50 0-255-149 51z m-107-141c-11 0-21 10-21 21l0 86c0 11 10 21 21 21l86 0 0-128z m363 128l21 0 0-128-21 0z"/>
<glyph glyph-name="check" unicode="&#46;" d="M434 453l-239-238-117 117-78-78 195-195 317 316z"/>
<glyph glyph-name="pencil" unicode="&#58;" d="M275 499l-187-335 1 0 9-151 138 68 1 0 187 335z m-146-433l-1 76 68-39z m91 73l-74 41 115 205 74-41z m51 265l21 37 74-42-21-37z"/>
<glyph glyph-name="twitch" unicode="&#47;" d="M256 388l0-124-41 0 0 124z m114 0l0-124-42 0 0 124z m0-217l72 72 0 228-341 0 0-300 93 0 0-62 62 62z m113 341l0-289-124-124-93 0-62-62-62 0 0 62-113 0 0 330 31 83z"/>
<glyph glyph-name="tik-tok" unicode="&#59;" d="M465 400c-54 0-98 43-98 97 0 8-6 15-15 15l-80 0c-8 0-15-7-15-15l0-329c0-32-26-58-57-58-32 0-58 26-58 58 0 31 26 57 58 57 8 0 15 7 15 15l0 80c0 9-7 15-15 15-93 0-168-75-168-167 0-93 75-168 168-168 92 0 167 75 167 168l0 145c30-15 63-24 98-24 8 0 15 7 15 15l0 81c0 8-7 15-15 15z"/>
<glyph glyph-name="my-business" unicode="&#60;" d="M448 482l-384 0-64-184 0-18c0-24 12-46 30-60l0-190 452 0 0 190c18 14 30 36 30 60l0 18z m28-172l-87 0-25 142 62 0z m-446-30l91 0c0-25-21-45-46-45-25 0-45 20-45 45z m211 0c0-25-20-45-45-45-25 0-45 20-45 45z m-88 30l25 142 63 0 0-142z m118 0l0 142 63 0 25-142z m91-30c0-25-21-45-46-45-25 0-45 20-45 45z m-276 172l62 0-25-142-87 0z m366-392l-392 0 0 147c5-1 10-2 15-2 25 0 47 12 61 30 13-18 35-30 60-30 24 0 46 12 60 30 14-18 36-30 60-30 25 0 47 12 61 30 13-18 35-30 60-30 5 0 10 1 15 2z m-15 175c-25 0-45 20-45 45l90 0c0-25-20-45-45-45z"/>
<glyph glyph-name="refresh" unicode="&#63;" d="M117 271c10 57 68 119 138 119 41 0 77-18 102-47l34 23c-33 39-83 65-137 65-91 0-166-63-177-152l-77 15 76-112 111 76z m319 59l-111-76 70-13c-10-57-69-119-138-119-41 0-77 18-102 47l-34-23c33-39 83-65 137-65 91 0 166 63 177 152l77-15z"/>
<glyph glyph-name="reload" unicode="&#62;" d="M295 446c-96 0-175-66-187-160l-81 16 80-118 118 79-75 15c10 60 73 126 146 126 81 0 146-69 146-150 0-80-80-146-144-146l0-42c107 0 187 86 187 190 0 104-86 190-190 190z"/>
<glyph glyph-name="cog" unicode="&#61;" d="M329 256c0 20-7 37-21 52-15 14-32 21-52 21-20 0-37-7-52-21-14-15-21-32-21-52 0-20 7-37 21-52 15-14 32-21 52-21 20 0 37 7 52 21 14 15 21 32 21 52z m146 31l0-63c0-3 0-5-2-7-1-2-3-3-6-4l-52-8c-4-10-8-19-12-26 7-9 17-22 31-39 2-2 3-5 3-7 0-3-1-5-3-7-5-7-14-17-28-31-14-13-23-20-27-20-2 0-5 1-7 3l-40 31c-8-5-17-8-26-11-3-26-6-44-8-53-1-6-5-8-10-8l-64 0c-2 0-5 0-7 2-2 2-3 4-3 6l-8 53c-9 3-18 6-26 10l-40-30c-2-2-4-3-7-3-3 0-5 1-7 3-24 22-40 38-47 48-2 2-2 4-2 7 0 2 0 4 2 6 3 4 8 11 14 19 7 9 12 16 16 21-5 9-9 19-12 28l-52 8c-3 0-5 1-6 3-2 2-2 4-2 7l0 63c0 3 0 5 2 7 1 2 3 3 5 4l53 8c3 8 7 17 12 26-8 11-18 24-31 39-2 3-3 5-3 7 0 2 1 4 3 7 5 7 14 17 28 30 14 14 23 21 27 21 2 0 5-1 7-3l40-31c8 5 17 8 26 11 3 26 6 44 8 53 1 6 5 8 10 8l64 0c2 0 5 0 7-2 2-2 3-4 3-6l8-53c9-3 18-6 26-10l40 30c2 2 4 3 7 3 3 0 5-1 7-3 25-23 41-39 47-49 2-1 2-3 2-6 0-2 0-4-2-6-3-4-8-11-14-19-7-9-12-16-16-21 5-9 9-18 12-28l52-8c3 0 5-1 6-3 2-2 2-4 2-7z"/>
<glyph glyph-name="close-icon" unicode="&#64;" d="M322 254l190-191-63-63-191 190-195-190-63 63 195 191-195 195 63 63 195-195 191 195 63-63z"/>
<glyph glyph-name="calendar" unicode="&#91;" d="M427 427l0 85-128 0 0-85-86 0 0 85-128 0 0-85-85 0 0-406 512 0 0 406z m-86 42l43 0 0-85-43 0z m-213 0l43 0 0-85-43 0z m341-405l-426 0 0 235 426 0z m0 256l-426 0 0 64 42 0 0-43 128 0 0 43 86 0 0-43 128 0 0 43 42 0z m-362-85l42 0 0-43-42 0z m64 0l42 0 0-43-42 0z m64 0l42 0 0-43-42 0z m64 0l42 0 0-43-42 0z m64 0l42 0 0-43-42 0z m-256-64l42 0 0-43-42 0z m64 0l42 0 0-43-42 0z m64 0l42 0 0-43-42 0z"/>
</font>
</defs>
</svg>
